I Robot 2004 BRRip 1080p DD5.1 H265-d3g

Discussion in 'Movies' started by szajtek, Aug 12, 2017.

  1. szajtek

    szajtek Well-Known Member

    [​IMG]

    Genre Action, Crime, Drama
    Actors Will Smith, Bridget Moynahan, Alan Tudyk, James Cromwell, Bruce Greenwood, Adrian Ricard, Chi McBride, Jerry Wasserman, Fiona Hogan, Peter Shinkoda, Terry Chen, David Haysom, Scott Heindl, Sharon Wilkins, Craig March
    Plot In 2035, a technophobic cop investigates a crime that may have been perpetrated by a robot, which leads to a larger threat to humanity.

    Code:

    Code:
    Format                                   : Matroska
    Format version                           : Version 4 / Version 2
    File size                                : 1.85 GiB
    Duration                                 : 1h 54mn
    Overall bit rate                         : 2 314 Kbps
    Movie name                               : I Robot 2004 BRRip 1080p DD5.1 H265-d3g
    Encoded date                             : UTC 2017-08-09 05:48:38
    Writing application                      : DVDFab 10.0.4.9
    Writing library                          : libebml v1.3.4 + libmatroska v1.4.5
    
    Video
    ID                                       : 1
    Format                                   : HEVC
    Format/Info                              : High Efficiency Video Coding
    Format profile                           : [email protected]@Main
    Codec ID                                 : V_MPEGH/ISO/HEVC
    Duration                                 : 1h 54mn
    Bit rate                                 : 1 864 Kbps
    Width                                    : 1 920 pixels
    Height                                   : 816 pixels
    Display aspect ratio                     : 2.35:1
    Frame rate mode                          : Constant
    Frame rate                               : 23.976 (24000/1001) fps
    Color space                              : YUV
    Chroma subsampling                       : 4:2:0
    Bit depth                                : 8 bits
    Bits/(Pixel*Frame)                       : 0.050
    Stream size                              : 1.49 GiB (81%)
    Default                                  : Yes
    Forced                                   : No
    Color range                              : Full
    Color primaries                          : BT.709
    Transfer characteristics                 : BT.709
    Matrix coefficients                      : BT.709
    
    Audio
    ID                                       : 2
    Format                                   : AC-3
    Format/Info                              : Audio Coding 3
    Mode extension                           : CM (complete main)
    Format settings, Endianness              : Big
    Codec ID                                 : A_AC3
    Duration                                 : 1h 54mn
    Bit rate mode                            : Constant
    Bit rate                                 : 448 Kbps
    Channel(s)                               : 6 channels
    Channel positions                        : Front: L C R, Side: L R, LFE
    Sampling rate                            : 48.0 KHz
    Frame rate                               : 31.250 fps (1536 spf)
    Compression mode                         : Lossy
    Stream size                              : 368 MiB (19%)
    Language                                 : English
    Default                                  : Yes
    Forced                                   : No
    Code:
    http://rapidgator.net/file/f28e663ea720c7d1c6ccc322d6390334/I_Robot_2004_BRRip_1080p_DD5.1_H265-d3g.rar.html